#TITLE:Misery Business;
#SUBTITLE:;
#ARTIST:Paramore;
#TITLETRANSLIT:;
#SUBTITLETRANSLIT:;
#ARTISTTRANSLIT:;
#CREDIT:;
#BANNER:banner.png;
#BACKGROUND:bg.png;
#LYRICSPATH:;
#CDTITLE:!cdtitle.png;
#MUSIC:Paramore- Misery Business (cut).mp3;
#OFFSET:-1.113;
#SAMPLESTART:37.190;
#SAMPLELENGTH:12.480;
#SELECTABLE:YES;
#BPMS:0.000=173.150;
#STOPS:;
#BGCHANGES:;
// cache tags:
#FIRSTBEAT:0.000;
#LASTBEAT:199.000;
#SONGFILENAME:Songs/Music V.I.P ^_^/Misery Business (Thanh)/I neva ment to brag.sm;
#HASMUSIC:1;
#HASBANNER:1;
#MUSICLENGTH:72.785;
// end cache tags

//---------------dance-single - ----------------
#NOTES:
     dance-single:
     :
     Challenge:
     10:
     1.000,0.991,1.000,0.000,0.137,361.000,170.000,0.000,0.000,18.000:
1101
0000
1011
0010
1100
0010
0001
1010
,
0100
1000
0010
0010
1001
0010
0100
0101
,
0000
0100
0010
0010
1001
0010
0001
1010
,
0100
0000
1000
0000
0001
0000
0001
0000
0110
0000
0001
0000
0011
1100
0011
1100
,
0011
0000
1011
0010
1100
0010
0001
1010
,
0100
1000
0010
0010
1001
0010
0100
0101
,
0000
0100
0010
0010
1001
0010
0001
1010
,
0100
1000
0001
0100
0011
1000
0100
0010
,
1001
0000
1011
1000
0110
1000
0010
0101
,
0010
0101
0100
0100
1001
0100
0010
1100
,
0000
0100
1000
1000
0110
1000
0010
0101
,
0010
0000
0101
0000
0100
0000
0100
0000
1001
0000
0100
0000
0001
0000
0110
0001
,
1000
0110
1000
1000
0110
1000
0010
0101
,
0010
0101
0100
0100
1001
0100
0010
1100
,
0000
0100
1000
1000
0110
1000
0010
0101
,
0010
0000
0101
0000
0010
0000
0010
0000
1010
0000
0010
0000
0100
0000
1100
0001
,
0100
0000
1100
0000
1011
0000
1000
0000
0110
0000
1000
0001
0010
0000
0101
0000
,
0010
0000
0101
0000
0100
0000
0100
0000
1001
0000
0100
0001
0010
0000
0101
0000
,
0000
0000
1010
0000
1000
0000
1000
0000
0110
0000
1000
0001
0010
0000
0101
0000
,
0010
0000
0101
0000
0100
0000
0100
0000
1001
0000
0100
1000
0001
0000
1001
0000
,
0100
0000
0100
0000
1011
0000
1000
0000
0110
0000
1000
0001
0010
0000
0101
0000
,
0010
0000
0101
0000
0100
0000
0100
0000
1001
0000
0100
0001
0010
0000
0101
0000
,
0000
0000
1010
0000
1000
0000
1000
0000
0110
0000
1000
0001
0010
0000
0101
0000
,
0010
0000
0101
0000
0010
0000
0001
0000
1010
0000
0000
0001
1000
0000
0100
0000
,
0011
0000
1011
0100
0101
0100
0101
0100
,
0101
0000
1001
0110
1001
0000
0110
0000
0110
0000
0110
0000
1101
0000
0000
0000
,
0000
0000
1011
0000
0101
0000
0011
1001
,
1010
0100
0010
0000
0110
0000
1010
1001
,
0011
0100
0001
0000
0101
0000
0011
0110
,
1010
0000
0001
1000
0101
1000
0011
0110
,
1001
0100
1011
0000
0101
0000
1100
0110
,
1001
0010
1000
0000
1010
0000
0011
0110
,
1001
0010
0100
0000
1010
0000
1100
1001
,
0011
0000
0010
0110
1010
0100
0011
0110
,
1100
1001
1101
0000
0100
0000
0101
0000
,
0100
0000
0100
0000
0100
0000
0101
1000
,
0100
0010
1101
0000
0001
0000
0101
0000
,
0001
0000
0000
0000
0001
0000
0000
0000
0101
0000
0000
0000
0001
0000
1010
0101
,
1010
0010
1101
0000
0110
0000
0110
0000
,
0110
0000
0110
0000
0110
0000
0110
1000
,
0110
0010
1101
0000
0110
0000
0110
0000
,
0110
0000
0000
0000
1001
0110
1001
0110
1001
0110
1001
0000
1101
0000
0000
0000
,
0000
0000
1011
0010
1100
0010
0001
1010
,
0100
1000
0010
0010
1001
0010
0100
0101
,
0000
0100
0010
0010
1001
0010
0001
1010
,
0100
0000
1000
0000
0001
0000
0001
0000
0110
0000
0001
0000
0011
1100
0011
1100
,
0011
0000
1011
0010
1100
0010
0001
1010
,
0100
1000
0010
0010
1001
0010
0100
0101
,
0000
0100
0010
0010
1001
0010
0001
1010
,
0100
0000
1000
0000
0011
0000
0000
0110
0000
0000
0011
0000
1101
0000
0000
0000
;
